Iron Man: La rebelión del technivoro (2013) [BDRip 1080p][Español Latino 5.1/Ingles]

Aqui te dejo esta excelente pelicula, como siempre en la mejor calidad posible e intentando variar con los servidores para que puedas ir descargando sin problemas, disfruta de Ver la pelicula Iron Man: La rebelión del technivoro (2013) [BDRip 1080p][Español Latino 5.1/Ingles] online sin restricciones y sin demoras, sin necesidad de registrarte, o si lo prefieres tambien puedes Descagar Iron Man: La rebelión del technivoro (2013) [BDRip 1080p][Español Latino 5.1/Ingles] gratis a tu ordenador y verla cuando quieras, disfrutala.

Dirigido por Hiroshi Hamasaki y con una historia de Brandon Auman, esta película explora la confrontación entre Iron Man y el villano Ezekiel Stane, quien desarrolla nueva biotecnología que, al parecer, sobrepasa la de la armadura de Iron Man. Así, Stane lanzará un ataque terrorista y hará parecer culpable a Iron Man, tras lo cual, el propio Stark tendrá que evadir a los cazadores de S.H.I.E.L.D. y encontrar la manera de limpiar su nombre.

Título originalIron Man: Rise of the Technovore (Ironman Anime Movie)
Año: 2013
Duración: 88 min.
País: Japón
Director: Hiroshi Hamasaki
Guión: Kengo Kaji (Historia: Brandon Auman)
Música: Tetsuya Takahashi
Fotografía: Animation
Animation: Productora Madhouse Inc.
Géneros: Animación. Acción. Ciencia ficción | Robots. Superhéroes. Cómic. Marvel Comics

Código:
General
Unique ID                                : 197748652300901225126131533221451604820 (0x94C5014DC3E3293383D1D4F42FA12354)
Complete name                            : Iron Man Rise Of Technovore 2013.mkv
Format                                   : Matroska
Format version                           : Version 2
File size                                : 4.65 GiB
Duration                                 : 1h 28mn
Overall bit rate                         : 7 554 Kbps
Movie name                               : www.Chamako.Net - Iron Man Rise Of Technovore 2013 1080p Latino
Encoded date                             : UTC 2013-04-14 05:45:41
Writing application                      : mkvmerge v3.4.0 ('Rapunzel') built on May 15 2010 09:38:20
Writing library                          : libebml v0.8.0 + libmatroska v0.9.0

Video
ID                                       : 1
Format                                   : AVC
Format/Info                              : Advanced Video Codec
Format profile                           : High@L4.1
Format settings, CABAC                   : Yes
Format settings, ReFrames                : 4 frames
Codec ID                                 : V_MPEG4/ISO/AVC
Duration                                 : 1h 28mn
Bit rate                                 : 5 595 Kbps
Width                                    : 1 920 pixels
Height                                   : 1 080 pixels
Display aspect ratio                     : 16:9
Frame rate mode                          : Constant
Frame rate                               : 23.976 fps
Color space                              : YUV
Chroma subsampling                       : 4:2:0
Bit depth                                : 8 bits
Scan type                                : Progressive
Bits/(Pixel*Frame)                       : 0.113
Stream size                              : 3.35 GiB (72%)
Title                                    : www.Chamako.Net - Iron Man Rise Of Technovore 2013
Writing library                          : x264 core 130 r2273 b3065e6
Encoding settings                        : cabac=1 / ref=4 / deblock=1:-1:-1 / analyse=0x3:0x133 / me=umh / subme=7 / psy=1 / psy_rd=1.00:0.00 / mixed_ref=1 / me_range=16 / chroma_me=1 / trellis=1 / 8x8dct=1 / cqm=0 / deadzone=21,11 / fast_pskip=1 / chroma_qp_offset=-2 / threads=12 / lookahead_threads=2 / sliced_threads=0 / nr=0 / decimate=1 / interlaced=0 / bluray_compat=0 / constrained_intra=0 / bframes=3 / b_pyramid=2 / b_adapt=2 / b_bias=0 / direct=1 / weightb=1 / open_gop=0 / weightp=2 / keyint=250 / keyint_min=23 / scenecut=40 / intra_refresh=0 / rc_lookahead=40 / rc=2pass / mbtree=1 / bitrate=5595 / ratetol=1.0 / qcomp=0.60 / qpmin=0 / qpmax=69 / qpstep=4 / cplxblur=20.0 / qblur=0.5 / ip_ratio=1.40 / aq=1:1.00
Language                                 : English
Default                                  : No
Forced                                   : No

Audio #1
ID                                       : 2
Format                                   : AC-3
Format/Info                              : Audio Coding 3
Mode extension                           : CM (complete main)
Format settings, Endianness              : Big
Codec ID                                 : A_AC3
Duration                                 : 1h 28mn
Bit rate mode                            : Constant
Bit rate                                 : 448 Kbps
Channel(s)                               : 6 channels
Channel positions                        : Front: L C R, Side: L R, LFE
Sampling rate                            : 44.1 KHz
Bit depth                                : 16 bits
Compression mode                         : Lossy
Stream size                              : 282 MiB (6%)
Title                                    : www.Chamako.Net - Latino 5.1
Language                                 : Spanish
Default                                  : Yes
Forced                                   : No

Audio #2
ID                                       : 3
Format                                   : DTS
Format/Info                              : Digital Theater Systems
Mode                                     : 16
Format settings, Endianness              : Big
Codec ID                                 : A_DTS
Duration                                 : 1h 28mn
Bit rate mode                            : Constant
Bit rate                                 : 1 509 Kbps
Channel(s)                               : 6 channels
Channel positions                        : Front: L C R, Side: L R, LFE
Sampling rate                            : 48.0 KHz
Bit depth                                : 16 bits
Compression mode                         : Lossy
Delay relative to video                  : 11ms
Stream size                              : 951 MiB (20%)
Title                                    : www.Chamako.Net - English
Language                                 : English
Default                                  : No
Forced                                   : No

Text #1
ID                                       : 4
Format                                   : UTF-8
Codec ID                                 : S_TEXT/UTF8
Codec ID/Info                            : UTF-8 Plain Text
Title                                    : www.Chamako.Net - English
Language                                 : English
Default                                  : No
Forced                                   : No

Text #2
ID                                       : 5
Format                                   : UTF-8
Codec ID                                 : S_TEXT/UTF8
Codec ID/Info                            : UTF-8 Plain Text
Title                                    : Spanish
Language                                 : Spanish
Default                                  : No
Forced                                   : No



ARCHIVO DE RECUPERACIÓN + 1 SFV DE COMPROBACIÓN DE RAR
Añadir el link al Jdownloader o MiPony, y empieza a descargar del host que mas te agrade
SERVIDORES DISPONIBLES

Iron Man: La rebelión del technivoro (2013) [BDRip 1080p][Español Latino 5.1/Ingles]

CONTRASEÑA: chamako (todo minusculas)

Si Algun link cae solo enviame un MP con el link del post y lo resubiré


Gracias por visitar PelisMania espero que el post de Iron Man: La rebelión del technivoro (2013) [BDRip 1080p][Español Latino 5.1/Ingles] te haya sido util y gustado, no dudes en darle me gusta a la pagina y recomendarla a tus amigos asi nos ayudan a crecer! muchas gracias por visitarnos dia a dia.
Peliculas Gratis para ver Online